» » Various Artists - Sampler #2

Various Artists - Sampler #2 album mp3

FLAC MP3 WMA
Various Artists - Sampler #2 album mp3
Adult Alternative,Chamber Jazz,Contemporary Instrumental,Crossover Jazz,Ethnic Fusion,Meditation/Relaxation,Neo-Classical,New Acoustic,Post-Bop,Solo Instrumental
  • Performer:
    Various Artists
  • Title:
    Sampler #2
  • Genre:
  • Style:
    Adult Alternative,Chamber Jazz,Contemporary Instrumental,Crossover Jazz,Ethnic Fusion,Meditation/Relaxation,Neo-Classical,New Acoustic,Post-Bop,Solo Instrumental
  • Date of release:
    1986
  • Duration:
    44:11
  • Size FLAC version
    1137 megabytes
  • Size MP3 version
    1598 megabytes
  • Size WMA version
    1463 megabytes
  • Rating:
    4.8
  • Votes:
    671
  • Formats:
    MP2 RA AU DXD XM MP2

Sampler ‎(CD, Club, Smplr).

Performer: VA Album: Naim - The Sampler 2 Label: Naim Label. Sampler 2 shows off a bustling 2 year shcedule of formidable jazz releases.

The term Various Artists is used in the record industry when numerous singers and musicians collaborate on a song or collection of songs. fm, compilation album tracks appear under the name of Various Artists erroneously because the individual artist is not listed in the album's ID3 information.

Super Audio Sampler 2, Various.

Hard Wax - Various Artists: Sound Sampler Vol. 2 (Soundsampler 02) - Done with love: for the music, for dancers, for detail. real House music in four incarnations - € . 0. real House music in four incarnations. A1 Soundstream: Aqua Dance. A2 Soundstudio: Track 440. B1 Soundhack: What You Feel. B2 Soundstore: Relief.

Various - Various Artists Sampler. Месяц релиза - любой - January February March April May June July August September October November December.

Various Artists - Linn SACD Sampler 2, Various. 2011 Japanese only SACD-Hybrid pressing of the 1977 multi-platinum RUMOURS album Yundi Li - Red Piano (Hybrid) Hong Kong - Import.

Va sampler 001 (vinyl only). more releases by artist. All prices are including 19% VAT excl.

REM GENRE Jazz REM DATE 2012 PERFORMER "Various Artists" TITLE "Neuklang Sampler Vol. 2 (WEB 2012 Neuklang)" FILE "01. Torque - Forward. flac" WAVE TRACK 01 AUDIO TITLE "Forward" PERFORMER "Torque" INDEX 01 00:00:00 FILE "02. Frank Kuruc - Wassernixen. flac" WAVE TRACK 02 AUDIO TITLE "Wassernixen" PERFORMER "Frank Kuruc" INDEX 01 00:00:00 FILE "03. Simin Tander - Becoming. flac" WAVE TRACK 03 AUDIO TITLE "Becoming" PERFORMER "Simin Tander" INDEX 01 00:00:00 FILE "04. Clemens Potzsch.

Продавец: Интернет-магазин Ozon. Адрес: Россия, Москва, Пресненская набережная, 10. ОГРН: 1027739244741

Credits

Ancient Future - Performer, Primary Artist
Spencer Brewer - Bass, Composer, Drums, Flute, Horn (English), Keyboards, Oboe, Percussion, Performer, Piano, Primary Artist, Producer, Saxophone, Synthesizer, Vocals
Ken Caillat - Engineer
Doug Cameron - Arranger, Bass, Drums, Guitar, Horn, Keyboards, Percussion, Producer, Strings, Violin
William Chatterton Dix - Composer
William Ellwood - Composer, Performer, Primary Artist, Producer
Ralf Illenberger - Bass, Drums, Guitar (Acoustic), Guitar (Electric), Keyboards, Marimba, Percussion, Producer, Saxophone
Michael Jones - Arranger, Composer, Performer, Primary Artist, Producer
Stephen Krause - Producer
David Lanz - Arranger, Performer, Primary Artist, Producer
Eric Lindert - Producer
Brian Mann - Accordion, Bass, Drums, Guitar, Harp, Horn, Keyboards, Producer, Strings, Woodwind
Randy Mead - Composer, Performer, Producer
Doug Mitchell - Engineer, Producer
Matthew Montfort - Composer, Performer, Producer
John Morey - Design
Eric Persing - Producer
Saul Raye - Engineer
Bobby Read - Engineer, Producer
Paul Reisler - Arranger, Engineer, Producer
Barbara Richardson - Design
Bernardo Rubaja - Bass, Drums, Flute, Guitar (Acoustic), Guitar (Bass), Guitar (Electric), Harp, Percussion, Piano, Sax (Soprano), Synthesizer, Trumpet, Vocals
Nancy Rumbel - Composer, Performer, Primary Artist
Hal Sacks - Engineer, Producer
Büdi Siebert - Producer
John Slattery - Engineer
Richard Souther - Bass, Cello, Guitar, Keyboards, Percussion, Piano, Sax (Soprano), Synthesizer
Paul Speer - Producer
Tingstad & Rumbel - Performer
Eric Tingstad - Composer, Performer, Primary Artist, Producer
Traditional - Composer
Trapezoid - Arranger, Autoharp, Clarinet, Drums, Dulcimer, Flute, Guitar (Electric), Guitar (Synthesizer), Keyboards, Mandolin, Percussion, Piano, Saxophone, Synthesizer, Violone, Vocals
Benjy Wertheimer - Producer
Friedemann - Bass, Guitar (Acoustic), Guitar (Electric), Keyboards, Marimba, Percussion, Producer, Sax (Soprano), Trumpet, Vibraphone, Woodwind
Johannes Wohlleben - Producer

Track List

Title/Composer Performer Time
1 Eternal Holly William Ellwood William Ellwood 4:48
2 Hillside View Randy Mead Ancient Future 6:58
3 Carol of the Bells Michael Jones Michael Jones 6:40
4 Shadow Dancer Spencer Brewer / Eric Tingstad Spencer Brewer / Nancy Rumbel / Eric Tingstad 3:38
5 Echoes Michael Jones Michael Jones 6:14
6 Mountain Song Matthew Montfort Ancient Future 3:53
7 Fisherman's Dream Nancy Rumbel / Eric Tingstad Nancy Rumbel 4:09
8 The Last Snow Leopard Spencer Brewer Spencer Brewer 3:27
9 What Child Is This? William Chatterton Dix / Traditional David Lanz 4:24