» » Various Artists - KHIH Jazz Sampler, Vol. 2

Various Artists - KHIH Jazz Sampler, Vol. 2 album mp3

FLAC MP3 WMA
Various Artists - KHIH Jazz Sampler, Vol. 2 album mp3
  • Performer:
    Various Artists
  • Title:
    KHIH Jazz Sampler, Vol. 2
  • Genre:
  • Date of release:
    August 21, 1997
  • Size FLAC version
    1323 megabytes
  • Size MP3 version
    1554 megabytes
  • Size WMA version
    1262 megabytes
  • Rating:
    4.6
  • Votes:
    707
  • Formats:
    MIDI DXD MPC WAV AA ASF

REM GENRE Jazz REM DATE 2012 PERFORMER "Various Artists" TITLE "Neuklang Sampler Vol. 2 (WEB 2012 Neuklang)" FILE "01. Torque - Forward. flac" WAVE TRACK 01 AUDIO TITLE "Forward" PERFORMER "Torque" INDEX 01 00:00:00 FILE "02. Frank Kuruc - Wassernixen. flac" WAVE TRACK 02 AUDIO TITLE "Wassernixen" PERFORMER "Frank Kuruc" INDEX 01 00:00:00 FILE "03. Simin Tander - Becoming. flac" WAVE TRACK 03 AUDIO TITLE "Becoming" PERFORMER "Simin Tander" INDEX 01 00:00:00 FILE "04.

Contemporary Jazz Crossover Jazz Fusion Jazz-Pop Quiet Storm Smooth Jazz Urban.

Sampler vol. 4. "Please retry".

Месяц релиза - любой - January February March April May June July August September October November December.

item 2 Concord Jazz Super Audio CD Sampler 2 by Various Artists. Concord Jazz Super Audio CD Sampler 2 by Various Artists. Greatest Hits: I II & III: The Platinum Collection by Queen (CD, Jul-2011, 3 Discs, Universal Distribution).

Hard Wax - Various Artists: Sound Sampler Vol. 2 (Soundsampler 02) - Done with love: for the music, for dancers, for detail. real House music in four incarnations - € . 0. real House music in four incarnations. A1 Soundstream: Aqua Dance. A2 Soundstudio: Track 440. B1 Soundhack: What You Feel. B2 Soundstore: Relief.

All the great songs and lyrics from the "KHIH 9. : Smooth Jazz Sampler, Vol. 4" album ont he Web's largest and most authoritative lyrics resource. Style:MLA Chicago APA. "KHIH 9. 4 Album.