» » Various Artists - Gem Sampler 2.2

Various Artists - Gem Sampler 2.2 album mp3

FLAC MP3 WMA
Various Artists - Gem Sampler 2.2 album mp3
Club/Dance
  • Performer:
    Various Artists
  • Title:
    Gem Sampler 2.2
  • Genre:
  • Style:
    Club/Dance
  • Date of release:
    2010
  • Size FLAC version
    1178 megabytes
  • Size MP3 version
    1642 megabytes
  • Size WMA version
    1721 megabytes
  • Rating:
    4.7
  • Votes:
    863
  • Formats:
    MP4 DMF MOD AA MMF MP2

Gem Sampler . and . come just in time for a Gem Records Amsterdam Dance Event showcase< at the Westerunie on Saturday October 24th including a big poster and advert campaign for the Sampler! Artists featured on Gem Sampler . (GEM006) are Secret Cinema and Tom Laws who both dropped a big fat techno bomb and Peter Horrevorts who supplies us with a huge peak time loop-disco techey stomper. Nic. n Gem Sampler . (GEM007) Egbert provides an energetic yet deep and hypnotic techno track while Roger Martinez delivers a Giorgio Moroderesque Italo influenced tech houser

Sampler ‎(CD, Club, Smplr).

Super Audio Sampler 2, Various.

VA - Ultimae Records compilation - FULL ALBUM.

Various Artists - Gem Sampler . Gem Sampler . come just in time for a Gem Records ‘Amsterdam Dance Event showcase’ at the Westerunie on Saturday Octo. Shift + or, - previous album. X or - or DEL - delete Track.

For It's the second Various Artists Sampler, the parisian label gives us another sharp selection of talented young bloods and confirmed producers. 4 quality deep house tracks here, done by Sebo K, Swoy, Dj Honesty and Olivier Romero. As usual with Politics Of Dancing records, this sampler is a versatile collection of dancefloor friendly cuts, and carefully chosen cracking deep house tracks. Limited vinyl only release. Olivier Romero – Killa Pilla. For It’s the second Various Artists Sampler, the parisian label gives us another sharp selection of talented young bloods and confirmed producers.

REM GENRE Jazz REM DATE 2012 PERFORMER "Various Artists" TITLE "Neuklang Sampler Vol. 2 (WEB 2012 Neuklang)" FILE "01. Torque - Forward. flac" WAVE TRACK 01 AUDIO TITLE "Forward" PERFORMER "Torque" INDEX 01 00:00:00 FILE "02. Frank Kuruc - Wassernixen. flac" WAVE TRACK 02 AUDIO TITLE "Wassernixen" PERFORMER "Frank Kuruc" INDEX 01 00:00:00 FILE "03. Simin Tander - Becoming. flac" WAVE TRACK 03 AUDIO TITLE "Becoming" PERFORMER "Simin Tander" INDEX 01 00:00:00 FILE "04. Clemens Potzsch.

Various - Various Artists Sampler. Месяц релиза - любой - January February March April May June July August September October November December.

Artist: VA Album: Various Objekts 2: A Bass Agenda Recordings Sampler Year: 2017 Country: UK Style: Electro, Techno, EB. Tracklist: 01. Gragee feat 4th Genome - No Release 02. Fleck . C - Dead End 03. Franck Kartell - Coincidences 04.

Credits

Kaap De Goede Hoop - Primary Artist
Egbert - Primary Artist
Roger Martinez - Primary Artist
Arjuna Schiks - Primary Artist

Track List

Title/Composer Performer Time
1 Een Nieuwe Generatie Egbert
2 Re-Move Roger Martinez
3 Girl Kaap De Goede Hoop
4 Gamelonia Arjuna Schiks