» » Various Artists - Dorian Sampler, Vol. 2

Various Artists - Dorian Sampler, Vol. 2 album mp3

FLAC MP3 WMA
Various Artists - Dorian Sampler, Vol. 2 album mp3
Miscellaneous (Classical)
  • Performer:
    Various Artists
  • Title:
    Dorian Sampler, Vol. 2
  • Genre:
  • Style:
    Miscellaneous (Classical)
  • Date of release:
    1988
  • Duration:
    58:31
  • Size FLAC version
    1749 megabytes
  • Size MP3 version
    1825 megabytes
  • Size WMA version
    1570 megabytes
  • Rating:
    4.1
  • Votes:
    398
  • Formats:
    AA TTA AU VOC MPC ADX

Hard Wax - Various Artists: Sound Sampler Vol. 2 (Soundsampler 02) - Done with love: for the music, for dancers, for detail. real House music in four incarnations - € . 0. real House music in four incarnations. A1 Soundstream: Aqua Dance. A2 Soundstudio: Track 440. B1 Soundhack: What You Feel. B2 Soundstore: Relief.

Listen free to Various Artists – 100% Sonidero, Vol. 2 (Intro Audimix, NO PUEDO VIVIR SIN TI and more). Discover more music, concerts, videos, and pictures with the largest catalogue online at Last. Warning! Deleting this artist may remove other artists and scrobbles from your library - please handle with caution! Note: You can view albums tagged as 'Various Artists' in your library here. The term Various Artists is used in the record industry when numerous singers and musicians collaborate on a song or collection of songs. fm, compilation album tracks appear under the name of Various Artists erroneously because the individual artist is not listed in the album's ID3 information.

Speedcore Worldwide Audio Netlabel presents: Various Artists - Speedcore Worldwide Sampler Vol. 2. Tracklist: 01. Reaktor-TH - Night On World Z1 02. DJ . hock - Bang It (Live 2001) 03. SD-501 - Electronic Voice Phenomena 04. Vojeet - Yasuraka Ni Shinu (Extended Version) 05. GewaltAcT - No Love, Just Pain 06. DJ Distorted Senses - Mushroom Effect 07. Vague Entity - In Eternal Darkness 08. Noizefucker - Emergency-5 09. DJ Disturbed - Army Of Darkness 10. Nevermind - Something Out There.

REM GENRE Jazz REM DATE 2012 PERFORMER "Various Artists" TITLE "Neuklang Sampler Vol. 2 (WEB 2012 Neuklang)" FILE "01. Torque - Forward. flac" WAVE TRACK 01 AUDIO TITLE "Forward" PERFORMER "Torque" INDEX 01 00:00:00 FILE "02. Frank Kuruc - Wassernixen. flac" WAVE TRACK 02 AUDIO TITLE "Wassernixen" PERFORMER "Frank Kuruc" INDEX 01 00:00:00 FILE "03. Simin Tander - Becoming. flac" WAVE TRACK 03 AUDIO TITLE "Becoming" PERFORMER "Simin Tander" INDEX 01 00:00:00 FILE "04.

Various ‎– Sound Sampler Vol. Label: Soundsampler ‎– SSMPLR 02. Format: Vinyl, 12", 33 ⅓ RPM, Promo, White Label.

Месяц релиза - любой - January February March April May June July August September October November December.

Article properties: Various: Psychobilly Sampler Vo. (CD). Album titlle: Psychobilly Sampler Vo. Year of publication 1996. Learn more about Various more. Various Artists , Singles Collections etc. Various Artist on Bear Family.

Various Artist-Axaminer Sampler vo. by Axaminer Records, released 18 June 2013 1. Isolate-Anonymus Series 2. Pluge-Tatranka 3. Ohmikron-Interval 4. Vytis-Forbidden Zone 5. Elektrabel-Gate1 6. Destroyer - Reflections 7. Krisz Deak&Ohmikron-Redemption 8. D e - Subsequent 9. Josef Nemček - Plasma 10. Wetrix - Gold Rain 11. Josef Nemček - Solar Gain 12. Reznyk-Crash 13. Mntp-None 14. Dialect-Ze Skrabance 15. ANS-Kosmonautska 16. Test-R-2012 Master by ORM Studio Next Compilation from Axaminer records! . Various Artist - Axaminer Sampler vol. by Axaminer Records. Streaming + Download. Purchasable with gift card.

Songs from Various Artists Sampler, Vol. 1 by Alex Falk, Diwex.

Credits

Ames Piano Quartet - Group
Bach Festival Orchestra - Orchestra
Julianne Baird - Soprano (Vocal)
Bethlehem Bach Choir - Choir/Chorus
Stanley Blanchard - Photography
Craig D. Dory - Liner Notes
Greg Funfgeld - Conductor
Tim Gilman - Photography
Jean Guillou - Organ
H. Scott Heist - Photography
Paul J. Hoeffler - Photography
Antonin Kubalek - Piano
Brian M. Levine - Liner Notes, Photography
Ronn McFarlane - Lute
Frank Miceli - Photography
Solid Brass - Brass Ensemble
Carol Thompson - Harp
Colin Tilney - Harpsichord

Track List

Title/Composer Performer Time
1 Suite of Mediaeval Carols 2:58
2 Woods, Rocks and Mountains, for voice & lute 3:23
3 The French King's Masque to the Consort of Six 1:20
4 This Merry Pleasant Spring 1:54
5 Kinderszenen No. 2 ("Curiose Geschichte"), for piano, Op. 15/2 1:11
6 Kinderszenen No. 7 ("Träumerei"), for piano, Op. 15/7 3:10
7 Kinderszenen No. 9 ("Ritter vom Steckenpferd"), for piano, Op. 15/9 0:54
8 Women of Ireland/Brian Boru's March 4:16
Pictures at an Exhibition (Kartinki s vïstavski), for piano
9 Promenade 1:26
10 Gnomus 2:32
11 Samuel Goldenberg and Schmuyle 2:41
Piano Quartet No. 2 in E flat major, B. 162 (Op. 87)
12 2. Lento 11:24
13 Sonata for keyboard in D minor, K. 9 (L. 413), "Pastorale" 3:34
14 Sonata for keyboard in G major, K. 337 (L. S26) 3:57
Cantata No. 63, "Christen, ätzet diesen Tag," BWV 63 (BC A8)
15 Aria. Gott, du hast es wohl gefüget 6:56
16 Chorus. Höchster, schau in Gnaden an 6:55