» » Various Artists - Batucada, Vol. 2 [Mole Listening Pearl]

Various Artists - Batucada, Vol. 2 [Mole Listening Pearl] album mp3

FLAC MP3 WMA
Various Artists - Batucada, Vol. 2 [Mole Listening Pearl] album mp3
Bossa Nova,Brazilian Jazz,Brazilian Traditions,Crossover Jazz,Latin Folk,Latin Jazz,World Fusion
  • Performer:
    Various Artists
  • Title:
    Batucada, Vol. 2 [Mole Listening Pearl]
  • Genre:
  • Style:
    Bossa Nova,Brazilian Jazz,Brazilian Traditions,Crossover Jazz,Latin Folk,Latin Jazz,World Fusion
  • Date of release:
    December 3, 2002
  • Duration:
    54:39
  • Size FLAC version
    1382 megabytes
  • Size MP3 version
    1507 megabytes
  • Size WMA version
    1428 megabytes
  • Rating:
    4.5
  • Votes:
    955
  • Formats:
    VOX DMF APE VQF MIDI MOD

Batucada, Vol. 2. Mole Listening Pearls 47. CD. 2004. Batucada, Vol. Under Cover Music 47.

Artist: VA Title Of Album: Batucada vo. Year Of Release: 2002 Label: Mole Listening Pearls Genre: Nu Bossa Nova, Lounge, Latin Quality: mp3 Bitrate: 320 kbps Total Time: 00:54:46 Total Si. 1. Dimitri From Paris - Toujours L'Amore (4:15) 2. Pete Rodriguez & Su Conjunto - I Like It (2:56) 3. The Vogado Projects vo. - Mas Fuerte Que El Sol (6:25) 4. Trio Mocoto - Nao Adianta (3:36) 5. Marcos Valle - Escape (5:38) 6. Minus 8 - At The Beach (3:38) 7. Cal Tjader - Souled Out (4:17) 8. Dave Pike

Explore releases from the Mole Listening Pearls label. Discover what's missing in your discography and shop for Mole Listening Pearls releases. From 2004 till October 2017, Mole Listening Pearls was with the new A&R Minus 8 part of Daredo Music label group. Since November 2017, Mole Listening Pearls belongs to UC. ne.

Listening Pearls - The Transistion of the seasons. The Lushlife Project. Best Of Mole Vol. 2 - 2004-2007. 1 - 1998-2003. Listening Pearls Series - Box Two. сборник.

Various Artists - Batucada vo. Жанр: Lounge,Downtempo,Latin Год выпуска диска: 2002 Производитель диска: Mole Listening Pearls,Germany Аудио кодек: FLAC Тип рипа: image+. cue Битрейт аудио: lossless Продолжительность: 54:46. Трэклист: 01. Dimitri From Paris - Toujours L 'Amore (4:15) 02. Pete Rodriguez & Su Conjunto - I Like It (2:56) 03. - Mas Fuerte Que El Sol (6:25) 04. Trio Mocoto - Nao Adianta (3:36) 05. Marcos Valle - Escape (5:38) 06.

Easy Listening Pearls, Vol. Открывайте новую музыку каждый день. Лента с персональными рекомендациями и музыкальными новинками, радио, подборки на любой вкус, удобное управление своей коллекцией. Миллионы композиций бесплатно и в хорошем качестве. Easy Listening Pearls, Vol. Hand Made Selection of Chill out and Lounge. Исполнитель: Various artists.

Mole Listening Pearls. Mole Listening Pearls. The Collection, Vol. 2 - 2001 - 2005.

FLAC Stereo 939 Kbps MP3 320 Kbps. 39. 0 Mb. Home Electronic Various Artists Listening Pearls Vol. 2 '2000. Listening Pearls Vol. CD 16-bit 44,1 kHz. 01 - Alphawezen - System 1.

PERFORMER "Various Artists" TITLE "Listening Pearls - Euphonic Perspectives (2006)" FILE "Various Artists - Listening Pearls - Euphonic Perspectives (2006). mp3" MP3 TRACK 01 AUDIO PERFORMER "Wax Tailor" TITLE "Que Sera" INDEX 01 00:00:00 TRACK 02 AUDIO PERFORMER "Airmate" TITLE "The Scene" INDEX 01 02:44:38 TRACK 03 AUDIO PERFORMER "Nagra" TITLE "Black Blade" INDEX 01 06:18:57.

Credits

Ambiel - Photography
Anima Sound System - Primary Artist
Audio Lotion - Primary Artist
Mike Baum - Composer, Guitar
Neil Combstock - Producer
Pancho Cristal - Producer
Joe Davis - Producer
Deodato - Guitar
Dimitri from Paris - Primary Artist
Joe Farrell - Sax (Soprano)
Everaldo Ferriera - Percussion
Gerardo Frisina - Composer, Primary Artist
L. Gale - Composer, Producer
Lucy Gale - Primary Artist
Urbie Green - Trombone
Antônio Carlos Jobim - Guitar, Piano, Primary Artist, Vocals
Hubert Laws - Flute
Vincenzo Lo Greco - Composer
Harry Lookofsky - Violin
René Luther - Producer
Rodrigo Botter Maio - Flute, Vocals
Robert Jan Meyer - Composer, Producer
Minus 8 - Primary Artist
Airto Moreira - Percussion
Tony Pabon - Composer
Daniele Patucchi - Arranger
Dave Pike - Composer, Primary Artist
Pete "El Conde" Rodríguez - Primary Artist
Su Conjunto - Primary Artist
Creed Taylor - Producer
Cal Tjader - Composer, Primary Artist
Trio Mocotó - Primary Artist
Marcos Valle - Composer, Primary Artist
The Vogado Projects - Primary Artist
Chris Vogado - Composer, Producer

Track List

Title/Composer Performer Time
1 Toujour l'Amore Dimitri from Paris 4:14
2 I Like It (I Like It Like That) Tony Pabon Su Conjunto / Pete "El Conde" Rodríguez 2:55
3 Mas Fuerte Que el Sol L. Gale / Chris Vogado Lucy Gale / The Vogado Projects 6:25
4 Não Adianta Trio Mocotó 3:35
5 Escape Marcos Valle Marcos Valle 5:37
6 At the Beach Mike Baum / Robert Jan Meyer Minus 8 3:38
7 Souled Out Cal Tjader Cal Tjader 4:17
8 Regards from Freddie Horrowitz Dave Pike Dave Pike 4:39
9 Leaving for Cala Bassa 3:08
10 Mas Eu Quer Ser Gerardo Frisina / Vincenzo Lo Greco Gerardo Frisina 4:43
11 Otoñal Audio Lotion 5:05
12 Childrens Game Antônio Carlos Jobim 3:25
13 Mariguana Cha Cha Cha Anima Sound System 2:58