» » Gianni Gebbia - Solo, Duets, Trio

Gianni Gebbia - Solo, Duets, Trio album mp3

FLAC MP3 WMA
Gianni Gebbia - Solo, Duets, Trio album mp3
  • Performer:
    Gianni Gebbia
  • Title:
    Solo, Duets, Trio
  • Genre:
  • Size FLAC version
    1411 megabytes
  • Size MP3 version
    1583 megabytes
  • Size WMA version
    1632 megabytes
  • Rating:
    4.4
  • Votes:
    126
  • Formats:
    ADX WMA DTS MMF MP2 AA

Download Solo, duets,trio by Gianni Gebbia on the independent record store by musicians for musicians. The first cd released by the italian saxophone payer Gianni Gebbia in 1989, he plays mostly solo or trio with Lelio Giannetto on bass and drummer Vittorio Villa. Genre: Jazz: Avant-Garde Jazz. We'll ship when it's back in stock.

1990 Gianni Gebbia -SOLO, DUETS, TRIO -cd Geb re. eprint by Il Pontesonoro Pvd 9602. 1990 Gianni Gebbia Trio - OUTLAND - feat. M. Simonini cd splasch rec. H315. 1990 Gianni Gebbia Trio - ZERO IN GEOMETRIA - lp Soundevent S003. 1990 Enzo Rao -SHAMAL - cd Il pontesonoro PVD 96-03. 2014 Gianni Gebbia Magnetic Trio - PROSPERO- objet-a digital album. 2015 Gianni Gebbia- Massimo Simonini - Tiziano Popoli-SOLUZIONE ATEMPORALE 1992-1994 dischi di angelica IDA 029. 2015 Gianni Gebbia-Lindsay Cooper-Fred Frith- Lars Hollmer ANGELS ON THE EDGE OF TIME dischi di angelicaIDA 031. 2015 Cupis ( Gianni Gebbia & Giovanni Verga )AVOIDING THE SUN digital album /objet-a 043. 2016 Gianni Gebbia NEOPLATONIC SOPRANO digital album /objet-a 044. 2017 Elettromagnetico 3 SAME BRUSHES digital album objet-a.

gianni gebbia trio слушать новинки онлайн или скачать без регистрации с z. Gianni Gebbia, Peter Kowald, Gunther Sommer Trio - Cappuccini Stimmen (Original Version). Gianni Gebbia, Peter Kowald, Gunther Sommer Trio - Nachtmusik (Original Version). Gianni Gebbia, Peter Kowald, Gunther Sommer Trio - Palilalia (Original Version). Gianni Gebbia, Peter Kowald, Gunther Sommer Trio - Calipso Facto (Original Version). Gianni Gebbia, Peter Kowald, Gunther Sommer Trio - Aràbbo (Duo) (Original Version). Gianni Gebbia, Peter Kowald, Gunther Sommer Trio - Meeting at the Vucciria (Original Version).

FILE "07 - Gianni Gebbia. wav" WAVE INDEX 01 00:00:00 TRACK 08 AUDIO TITLE "Taku Sugimoto" PERFORMER "Brett Larner" INDEX 00 05:44:30 FILE "08 - Taku Sugimoto. wav" WAVE INDEX 01 00:00:00 TRACK 09 AUDIO TITLE "Loren Mazzacane Connors" PERFORMER "Brett Larner" INDEX 00 06:37:24 FILE "09 - Loren Mazzacane Connors. wav" WAVE INDEX 01 00:00:00. The album closes on a warm improv with Gino Robair, both musicians playing on the same koto. Not as important as Indistancing or the Soemon CD, Itadakimasu remains an interesting effort. Recommended if one can handle the photographs of Tibetan meat markets.

Gianni Gebbia, Peter Kowald, Gunther Sommer Trio Mafia Swing Sarabande. Gianni Gebbia, Peter Kowald, Gunther Sommer Trio Calipso Facto. Gianni Gebbia, Peter Kowald, Gunther Sommer Trio Palilalia. Gianni Gebbia, Peter Kowald, Gunther Sommer Trio Capetown, Palermo. Gianni Gebbia, Peter Kowald, Gunther Sommer Trio Sotto voce ii. (play). Gianni Gebbia, Peter Kowald, Gunther Sommer Trio Nachtmusik.

Продавец: Интернет-магазин Ozon. Адрес: Россия, Москва, Пресненская набережная, 10. ОГРН: 1027739244741

Credits

Gianni Gebbia - Primary Artist

Track List

Title/Composer Performer Time
1 Lecon des Tenebres Gianni Gebbia 4:15
2 Breathless 1 Gianni Gebbia 6:37
3 Jazz Fan Retrouvè Gianni Gebbia 4:15
4 Primitivo Gianni Gebbia 7:09
5 Verso Kamarina Gianni Gebbia 8:40
6 D'Albe Gianni Gebbia 5:31
7 Breathless 2 Gianni Gebbia 4:25